Games of Thrones Juego de Tronos, 3x03 HDTV, Ver. Ingles | Latino | VOSE toda la temporada - DVDrip Movies

Games of Thrones Juego de Tronos, 3×03 HDTV, Ver. Ingles | Latino | VOSE toda la temporada

By

abril 15, 2013Dvdrip GratisNo comments


>>>Click aquí para Descargar Games of Thrones Juego de Tronos, 3×03 HDTV, Ver. Ingles | Latino | VOSE toda la temporada<<<

Games of Thrones Juego de Tronos, 3×03 HDTV, Ver. Ingles | Latino | VOSE [Temporada][Subtitulada][MEGA]




La historia de Canción de Hielo y Fuego se sitúa en un mundo ficticio medieval. Hay tres líneas argumentales en la serie: la crónica de la guerra civil dinástica por el control de Poniente entre varias familias nobles; la creciente amenaza de los Otros, apenas contenida por un inmenso muro de hielo que protege el norte de Poniente; y el viaje de Daenerys Targaryen, la hija exiliada del rey que fue asesinado en otra guerra civil hace quince años, quien busca regresar a Poniente a reclamar sus derechos.


Código:
Format                                   : AVI
Format/Info : Audio Video Interleave
File size : 698 MiB
Duration : 54mn 16s
Overall bit rate : 1 798 Kbps
Writing library : VirtualDub build 32842/release

Video
ID : 0
Format : MPEG-4 Visual
Format profile : Advanced Simple@L5
Format settings, BVOP : 2
Format settings, QPel : No
Format settings, GMC : No warppoints
Format settings, Matrix : Default (H.263)
Muxing mode : Packed bitstream
Codec ID : XVID
Codec ID/Hint : XviD
Duration : 54mn 16s
Bit rate : 1 533 Kbps
Width : 1 280 pixels
Height : 720 pixels
Display aspect ratio : 16:9
Frame rate : 23.976 fps
Color space : YUV
Chroma subsampling : 4:2:0
Bit depth : 8 bits
Scan type : Progressive
Compression mode : Lossy
Bits/(Pixel*Frame) : 0.069
Stream size : 595 MiB (85%)
Writing library : XviD 64

Audio
ID : 1
Format : MPEG Audio
Format version : Version 1
Format profile : Layer 3
Mode : Joint stereo
Mode extension : MS Stereo
Codec ID : 55
Codec ID/Hint : MP3
Duration : 54mn 16s
Bit rate mode : Constant
Bit rate : 256 Kbps
Channel(s) : 2 channels
Sampling rate : 48.0 KHz
Compression mode : Lossy
Stream size : 99.4 MiB (14%)
Alignment : Split accross interleaves
Interleave, duration : 42 ms (1.00 video frame)
Interleave, preload duration : 500 ms






VOSE (En Ingles con Subtitulos en Español)



Version en Latino



Version Original (En Ingles)





Valoración: 0 / 5.00 (0 votos)

Games of Thrones Juego de Tronos, 3×03 HDTV, Ver. Ingles | Latino | VOSE [Temporada][Subtitulada][MEGA]


Leave a Reply

You must be logged in to post a comment.